Tuners TNT & logiciels associés

Discussion autour du Replay de la Vidéo (M6Replay, Youtube, encodage, ...)

Re: Tuners TNT & logiciels associés

Messagede racacax » Jeu 22 Déc 2016 10:52

Bonjour,
Merci, je testerai DVPriper pour voir s'il accepte les flux HTTP contenant les infos brut.

Pour ce qui est des infos de mon fichier, Media Info, lui ne détecte pas de pistes audio mais elle sont listées ailleurs :
Code: Tout sélectionner
Général
ID                                       : 4 (0x4)
Nom complet                              : C:\Users\cleme\Desktop\MYRECORD\20161221-115859-0524-M6\0001.TS
Format                                   : MPEG-TS
Taille du fichier                        : 6,50 Mio
Durée                                    : 13s 930 ms
Type de débit global                     : Variable
Débit global moyen                       : 3 880 kb/s

Vidéo
ID                                       : 120 (0x78)
ID de menu                               : 1025 (0x401)
Format                                   : AVC
Format/Info                              : Advanced Video Codec
Profil du format                         : High@L4
Paramètres du format, CABAC              : Oui
Paramètres du format, RefFrames          : 4 images
Identifiant du codec                     : 27
Durée                                    : 13s 320 ms
Débit                                    : 3 688 kb/s
Largeur                                  : 1 920 pixels
Hauteur                                  : 1 080 pixels
Format à l'écran                         : 16/9
Images par seconde                       : 25,000 Im/s
Norme                                    : Component
Espace de couleurs                       : YUV
Sous-échantillonnage de la chrominance   : 4:2:0
Profondeur des couleurs                  : 8 bits
Type de balayage                         : MBAFF
Ordre de balayage, mode d'enregistrement : Trames entrelacées
Ordre de balayage                        : Ligne du haut d'abord
Bits/(Pixel*Image)                       : 0.071
Taille du flux                           : 5,86 Mio (90%)
Gamme de couleurs                        : Limited
Coordonnées de chromaticité              : BT.709
Caractéristiques du transfert            : BT.709
Coefficients de la matrice               : BT.709

Menu
ID                                       : 100 (0x64)
ID de menu                               : 1025 (0x401)
Durée                                    : 13s 930 ms
Liste                                    : 120 (0x78) (AVC) / 130 (0x82) (E-AC-3) / 131 (0x83) (E-AC-3) / 132 (0x84) (E-AC-3) / 140 (0x8C) (DVB Subtitle) / 141 (0x8D) (DVB Subtitle) / 170 (0xAA) () / 171 (0xAB) ()
Nom du service                           : M6
Fournisseur du service                   : Multi4
Type de service                          : advanced codec HD digital television




Windows 10 64 bits / France / Firefox 50.0
Avatar de l’utilisateur
racacax
 
Messages: 845
Inscription: Mer 13 Nov 2013 17:57

Re: Tuners TNT & logiciels associés

Messagede Pulsar33 » Jeu 22 Déc 2016 11:24

racacax a écrit:lui ne détecte pas de pistes audio mais elle sont listées ailleurs

C'est à dire ?
Si mediainfo ne les voit pas dans le fichier, tu vas avoir en effet du mal à les récupérer :shock:

DVPiper accepte un .ts dans un flux HTTP mais tes infos brutes ...?

Bonne journée
Pulsar33


Windows XP / France / Firefox 50.0
Sur neonet.fr : téléchargez gratuitement VCTL v2.0 pour vos traitements vidéos ( à découvrir en lisant le Tutoriel ).
Pulsar33 ... Matériels : PCs MINT 18 & XP SP3, NAS Asustor, Disques Multimédia EMTEC, Tuner TNT TERRATEC, Camescope DV.
Avatar de l’utilisateur
Pulsar33
 
Messages: 1283
Inscription: Dim 30 Sep 2012 14:23
Localisation: Bordeaux

Re: Tuners TNT & logiciels associés

Messagede racacax » Jeu 22 Déc 2016 12:11

Code: Tout sélectionner
Liste                                    : 120 (0x78) (AVC) / 130 (0x82) (E-AC-3) / 131 (0x83) (E-AC-3) / 132 (0x84) (E-AC-3) / 140 (0x8C) (DVB Subtitle) / 141 (0x8D) (DVB Subtitle) / 170 (0xAA) () / 171 (0xAB) ()


Salut,
Les pistes sont listez avec les pistes de sous-titres mais pas comme étant des pistes audio que qui est assez étrange. Ce serait dommage de ne pas pouvoir récupérer le son (et donc que ce décodeur ne serve plus à rien) car j'ai un disque dur avec deux prises USB et donc je peux lire l'enregistrement en même temps qu'il est enregistré (donc je peux regarder en direct). Ma connexion Internet est peut-être très bonne (20 MBits) mais vu que je suis assez loin de la box, parfois le signal se perd.

Pour DVPriper, c'est bien au format TS que sont les flux avec l'EPG. Il faut que je vois les commandes. Après, VLC arrive très bien à récupérer les infos donc je pense que DVPriper y arrivera.


Windows 10 64 bits / France / Firefox 50.0
Avatar de l’utilisateur
racacax
 
Messages: 845
Inscription: Mer 13 Nov 2013 17:57

Re: Tuners TNT & logiciels associés

Messagede Pulsar33 » Jeu 22 Déc 2016 12:17

Poste quelques secondes de vidéo .ts zippée ici, je verrai ce que je peux faire.

Syntaxe de DVpiper (pas DVPriper)

Pulsar33


Windows XP / France / Firefox 50.0
Sur neonet.fr : téléchargez gratuitement VCTL v2.0 pour vos traitements vidéos ( à découvrir en lisant le Tutoriel ).
Pulsar33 ... Matériels : PCs MINT 18 & XP SP3, NAS Asustor, Disques Multimédia EMTEC, Tuner TNT TERRATEC, Camescope DV.
Avatar de l’utilisateur
Pulsar33
 
Messages: 1283
Inscription: Dim 30 Sep 2012 14:23
Localisation: Bordeaux

Re: Tuners TNT & logiciels associés

Messagede racacax » Jeu 22 Déc 2016 12:53

Et voici :
0001.zip
(6.4 Mio) Téléchargé 35 fois


Je soupçonne peut-être que la piste audio est vraiment absente car je viens de retenter et mon décodeur ne lit même plus l'audio. De plus, les flux TNT HTTP que j'ai ont les mêmes infos et le son se lit bien. Les infos sur la piste audio sont en plus, plus détaillées que celles de l'enregistrement du décodeur :

1. Flux TNT Web & 2. Enregistrement TNT
ImageImage
Bonne journée :)


Windows 10 64 bits / France / Firefox 50.0
Avatar de l’utilisateur
racacax
 
Messages: 845
Inscription: Mer 13 Nov 2013 17:57

Re: Tuners TNT & logiciels associés

Messagede Pulsar33 » Jeu 22 Déc 2016 15:44

Les pistes audio sont vides :

Code: Tout sélectionner
  Duration: 00:00:14.08, start: 49817.971122, bitrate: 3872 kb/s
  Program 1025
    Metadata:
      service_name    : M6
      service_provider: Multi4
    Stream #0:0[0x78]: Video: h264 (High) ([27][0][0][0] / 0x001B), yuv420p, 1920x1080 [SAR 1:1 DAR 16:9], 27.80 fps, 25 tbr, 90k tbn, 50 tbc
    Stream #0:1[0x82](fra): Audio: eac3 ([6][0][0][0] / 0x0006), 0 channels, s16
    Stream #0:2[0x83](qad): Audio: eac3 ([6][0][0][0] / 0x0006), 0 channels, s16
    Stream #0:3[0x84](qaa): Audio: eac3 ([6][0][0][0] / 0x0006), 0 channels, s16
    Stream #0:4[0x8c](fra): Subtitle: dvb_subtitle ([6][0][0][0] / 0x0006) (hearing impaired)
    Stream #0:5[0x8d](fra): Subtitle: dvb_subtitle ([6][0][0][0] / 0x0006)
    Stream #0:6[0xaa]: Unknown: none ([5][0][0][0] / 0x0005)
    Stream #0:7[0xab]: Unknown: none ([11][0][0][0] / 0x000B)
  Program 1026
    Metadata:
      service_name    : W9
      service_provider: Multi4
  Program 1031
    Metadata:
      service_name    : Arte
      service_provider: Multi4
  Program 1045
    Metadata:
      service_name    : France 5
      service_provider: Multi4
  Program 1046
    Metadata:
      service_name    : 6ter
      service_provider: Multi4


Stream #0:1[0x82](fra): Audio: eac3 ([6][0][0][0] / 0x0006), 0 channels, s16
Stream #0:2[0x83](qad): Audio: eac3 ([6][0][0][0] / 0x0006), 0 channels, s16
Stream #0:3[0x84](qaa): Audio: eac3 ([6][0][0][0] / 0x0006), 0 channels, s16

Comme déjà dit :
L'E-AC3 ayant été mis en service après la fabrication des premiers décodeurs TNT, nombreux sont ceux qui n'arrivent pas à s'en débrouiller
Je crains que ce ne soit sans espoir :-(

Bonne soirée quand même
Pulsar33


Windows XP / France / Firefox 50.0
Sur neonet.fr : téléchargez gratuitement VCTL v2.0 pour vos traitements vidéos ( à découvrir en lisant le Tutoriel ).
Pulsar33 ... Matériels : PCs MINT 18 & XP SP3, NAS Asustor, Disques Multimédia EMTEC, Tuner TNT TERRATEC, Camescope DV.
Avatar de l’utilisateur
Pulsar33
 
Messages: 1283
Inscription: Dim 30 Sep 2012 14:23
Localisation: Bordeaux

Re: Tuners TNT & logiciels associés

Messagede racacax » Jeu 22 Déc 2016 20:32

Merci de l'aide Pulsar33. Je pense qu'il réencode tout (je vais voir les docs sur Akira). J'ai testé avec un autre décodeur mais là, il n'enregistre rien (c'est ça Metronic). Je travaille sur l'intérieur et je regarde les modèles du tuner, ... pour voir ce que je peux faire. Rien est perdu. J'ai un peu de matériel :)

Bonne fin de semaine et bonnes fêtes ;)


Windows 10 64 bits / France / Firefox 50.0
Avatar de l’utilisateur
racacax
 
Messages: 845
Inscription: Mer 13 Nov 2013 17:57

Précédente

Retourner vers Replay, Vidéo, Multimédia

Qui est en ligne

Utilisateurs parcourant ce forum: Aucun utilisateur enregistré et 1 invité