Page 1 sur 1

Pas de flux trouvé Erreur 3

MessagePosté: Jeu 1 Jan 2015 11:37
de elfe
Bonjour à tous et bonne année,

Je viens tout juste de découvrir ce logiciel mais je rencontre une erreur "Erreur 3", pas de flux trouvé.
Le lien vient bien du site pluzz, c'est http://pluzz.francetv.fr/videos/comment ... anete.html

PS : c'est pour fabriquer ma planète :D

Merci par avance et passez un bel après midi

Windows XP / France / Firefox 34.0

Re: Pas de flux trouvé Erreur 3

MessagePosté: Jeu 1 Jan 2015 13:25
de Pulsar33
Bonjour et bonne année également,

Essaye avec ce lien : http://pluzz.francetv.fr/videos/comment ... 61877.html
Pour info : Captvty télécharge le fichier sans problème.

Cordialement
Pulsar33

Windows XP / France / Firefox 31.0

Re: Pas de flux trouvé Erreur 3

MessagePosté: Jeu 1 Jan 2015 17:14
de aazerty
Bjr ,

@czmaster : Meilleurs voeux pour 2015 .

Conernant la demande : http://pluzz.francetv.fr/videos/comment ... 61877.html

Code: Tout sélectionner
Avec Zedeo V07 , récup du lien opérationnelle .
http://ftvodhdsecz-f.akamaihd.net/i/streaming-adaptatif_france-dom-tom/2014/S01/J3/114661877-20141231-,398,632,934,k.mp4.csmil/index_2_av.m3u8
=====
Avec Zedeo V09 , récup du lien non-fontionnelle .
=====


Slt .

Code: Tout sélectionner
Pour info : ma tentative avec youtuble-dl.exe (v 2014.12.14.0)
====
youtube-dl -F http://pluzz.francetv.fr/videos/comment_fabriquer_une_planete_,114661877.html

[pluzz.francetv.fr] comment_fabriquer_une_planete_,114661877: Downloading webpage
[pluzz.francetv.fr] 114661877: Downloading video JSON
[pluzz.francetv.fr] 114661877: Downloading geo restriction info
[pluzz.francetv.fr] 114661877: Downloading m3u8 information
[info] Available formats for 114661877:
format code extension resolution  note
m3u8-meta   mp4       multiple    Quality selection URL  (worst)
m3u8-303    mp4       320x180      303k , avc1,  mp4a
m3u8-576    mp4       512x288      576k , avc1,  mp4a
m3u8-833    mp4       704x396      833k , avc1,  mp4a (best)
=====


Code: Tout sélectionner
youtube-dl -f m3u8-833 "http://pluzz.francetv.fr/videos/comment_fabriquer_une_planete_,114661877.html" -o Fabriquer_une_planete.flv

[pluzz.francetv.fr] comment_fabriquer_une_planete_,114661877: Downloading webpage
[pluzz.francetv.fr] 114661877: Downloading video JSON
[pluzz.francetv.fr] 114661877: Downloading geo restriction info
[pluzz.francetv.fr] 114661877: Downloading m3u8 information
[download] Destination: Fabriquer_une_planete.flv
ffmpeg version N-53284-gd0a34ae Copyright (c) 2000-2013 the FFmpeg developers
  built on May 20 2013 01:02:45 with gcc 4.7.3 (GCC)
  configuration: --enable-gpl --enable-version3 --disable-w32threads --enable-avisynth --enable-bzlib --enable-fontconfig --enable-frei0r --enable-gnu
tls --enable-iconv --enable-libass --enable-libbluray --enable-libcaca --enable-libfreetype --enable-libgsm --enable-libilbc --enable-libmp3lame --ena
ble-libopencore-amrnb --enable-libopencore-amrwb --enable-libopenjpeg --enable-libopus --enable-librtmp --enable-libschroedinger --enable-libsoxr --en
able-libspeex --enable-libtheora --enable-libtwolame --enable-libvo-aacenc --enable-libvo-amrwbenc --enable-libvorbis --enable-libvpx --enable-libx264
--enable-libxavs --enable-libxvid --enable-zlib
  libavutil      52. 33.100 / 52. 33.100
  libavcodec     55. 10.101 / 55. 10.101
  libavformat    55.  7.100 / 55.  7.100
  libavdevice    55.  1.100 / 55.  1.100
  libavfilter     3. 68.101 /  3. 68.101
  libswscale      2.  3.100 /  2.  3.100
  libswresample   0. 17.102 /  0. 17.102
  libpostproc    52.  3.100 / 52.  3.100
Input #0, hls,applehttp, from 'http://ftvodhdsecz-f.akamaihd.net/i/streaming-adaptatif_france-dom-tom/2014/S01/J3/114661877-20141231-,398,632,934,k.mp4.csmil/index_2_av.m3u8?null=':
  Duration: 01:24:34.00, start: 0.100667, bitrate: 0 kb/s
  Program 0
    Metadata:
      variant_bitrate : 0
    Stream #0:0: Video: h264 (Main) ([27][0][0][0] / 0x001B), yuv420p, 704x396 [SAR 1:1 DAR 16:9], 12.50 fps, 25 tbr, 90k tbn, 50 tbc
    Stream #0:1: Audio: aac ([15][0][0][0] / 0x000F), 48000 Hz, stereo, fltp, 62 kb/s
Output #0, mp4, to 'la_terre.flv.part':
  Metadata:
    encoder         : Lavf55.7.100
    Stream #0:0: Video: h264 ([33][0][0][0] / 0x0021), yuv420p, 704x396 [SAR 1:1 DAR 16:9], q=2-31, 12.50 fps, 90k tbn, 90k tbc
    Stream #0:1: Audio: aac ([64][0][0][0] / 0x0040), 48000 Hz, stereo, 62 kb/s
Stream mapping:
  Stream #0:0 -> #0:0 (copy)
  Stream #0:1 -> #0:1 (copy)
Press [q] to stop, [?] for help
frame=126861 fps= 89 q=-1.0 Lsize=  520615kB time=01:24:34.47 bitrate= 840.5kbits/s
video:477302kB audio:41270kB subtitle:0 global headers:0kB muxing overhead 0.393818%
[ffmpeg] 533109695 bytes


Windows XP / France / Firefox 34.0

Re: Pas de flux trouvé Erreur 3

MessagePosté: Jeu 1 Jan 2015 20:38
de czmaster
Meilleur vœux aussi à vous tous,

Effectivement la version 0.9 avait quelque problème, j'ai essayé de changer 2 ou 3 trucs pour que Zedeo ne soit plus détecté comme un virus
Non seulement ça n'a marché qu'un temps, mais en plus Zedeo est devenu moins efficace ...

Je vous propose donc la version 1.0
Pour justifier cette version j'ai aussi ajouté une détection des URL potentiellement compatible dans le presse papier.
Par exemple si vous copiez l'URL http://pluzz.francetv.fr/videos/comment ... anete.html il ne sera plus nécessaire de la coller Zedeo la détectera tout seul, ce n'est pas grand chose mais ça justifiera le changement de version :)

En tout cas ça fonctionne de nouveau
Image

A+

PS : Malheureusement le système de détection de nouvelle version ne fonctionne plus correctement non plus dans la version 0.9, à vous donc de chercher cette nouvelle version : tel/?f=Zedeo.exe

Windows 7 64 bits / France / Firefox 33.0

Re: Pas de flux trouvé Erreur 3

MessagePosté: Jeu 1 Jan 2015 22:42
de racacax
Salut,
En tout cas, avast ! ne dit rien, c'est rare tout ça ;)

Windows 7 64 bits / France / Firefox 34.0

Re: Pas de flux trouvé Erreur 3

MessagePosté: Ven 2 Jan 2015 11:27
de czmaster
Salut,

racacax a écrit:En tout cas, avast ! ne dit rien, c'est rare tout ça ;)

Malheureusement je crains que ça ne soit que de courtes durée.

Windows 7 64 bits / France / Firefox 33.0

Re: Pas de flux trouvé Erreur 3

MessagePosté: Ven 2 Jan 2015 11:32
de elfe
Bonjour,

En effet Pulsar33, ça fonctionne avec Captvty :).
Merci czmaster, ça fonctionne aussi avec la version 1.0 par contre il m'a enregistré seulement un morceau de la vidéo que le début je pense que c'est surement une erreur de ma part :mrgreen:.

Sur ce, merci à tous et bonne journée.
Windows XP / France / Firefox 34.0

Windows XP / France / Firefox 34.0